+ Reply to Thread + Post New Thread
Results 1 to 2 of 2

Thread: Escape from L.A 1996 BluRay 720p x264 Dts-PiPicK

  1. #1
    The FiXeR has a reputation beyond repute The FiXeR has a reputation beyond repute The FiXeR has a reputation beyond repute The FiXeR has a reputation beyond repute The FiXeR has a reputation beyond repute The FiXeR has a reputation beyond repute The FiXeR has a reputation beyond repute The FiXeR has a reputation beyond repute The FiXeR has a reputation beyond repute The FiXeR has a reputation beyond repute The FiXeR has a reputation beyond repute The FiXeR's Avatar
    Join Date
    Mar 2011
    Gender:
    Location
    Toronto Canada
    Posts
    9,006
    Points: 102,433, Level: 77
    Points: 102,433, Level: 77
    Level completed: 96%,
    Points required for next Level: 117
    Level completed: 96%, Points required for next Level: 117
    Overall activity: 38.0%
    Overall activity: 38.0%
    Achievements:
    Created Blog entryOverdriveTagger First ClassRecommendation First ClassThree Friends
    Awards:
    Calendar AwardArm of LawDownloadsDiamond MemberDiscussion Ender
    Post Thanks / Like
    Blog Entries
    5

    Escape from L.A 1996 BluRay 720p x264 Dts-PiPicK

    Only the registered members can see the link. Register here


    Information
    Escape from L.A 1996 BluRay 720p x264 Dts-PiPicK.mkv
    Format : Matroska
    File size : 5.98 GiB
    Duration : 1h 40mn
    Overall bit rate : 8 505 Kbps
    Encoded date : UTC 2010-08-04 13:23:40
    Writing application : mkvmerge v3.4.0 ('Rapunzel') built on May 15 2010 09:38:20
    Writing library : libebml v0.8.0 + libmatroska v0.9.0

    Video
    ID : 1-TH
    Format : AVC
    Format/Info : Advanced Video Codec
    Format profile : High@L4.1
    Format settings, CABAC : Yes
    Format settings, ReFrames : 9 frames
    Codec ID : V_MPEG4/ISO/AVC
    Duration : 1h 40mn
    Bit rate : 7 000 Kbps
    Width : 1 280 pixels
    Height : 546 pixels
    Display aspect ratio : 2.35:1
    Frame rate : 23.976 fps
    Color space : YUV
    Chroma subsampling : 4:2:0
    Bit depth : 8 bits
    Scan type : Progressive
    Bits/(Pixel*Frame) : 0.418
    Stream size : 4.80 GiB (80%)
    Writing library : x264 core 98 r1649 20cbe10
    Language : English

    Audio
    ID : 2
    Format : DTS
    Format/Info : Digital Theater Systems
    Codec ID : A_DTS
    Duration : 1h 40mn
    Bit rate mode : Constant
    Bit rate : 1 510 Kbps
    Channel(s) : 6 channels
    Channel positions : Front: L C R, Side: L R, LFE
    Sampling rate : 48.0 KHz
    Bit depth : 24 bits
    Compression mode : Lossy
    Stream size : 1.06 GiB (18%)
    Language : English




    Only the registered members can see the link. Register here
    Only the registered members can see the link. Register hereOnly the registered members can see the link. Register here
    Only the registered members can see the link. Register here

    Info Links Are 500meg/Interchangable/Password-Protected/5% Rar-Recovery



    Only the registered members can see the link. Register here
    Code:
    Only the registered members can see the link. Register here
    Only the registered members can see the link. Register here
    Code:
    Only the registered members can see the link. Register here
    Only the registered members can see the link. Register here
    Code:
    Only the registered members can see the link. Register here
    Only the registered members can see the link. Register here

    Alert mhd-hdhieu.com



    Note
    If Any Of My Links Are Broken Just Reply To This Thread And I Will Fix ASAP
    I Follow Up On All My Threads !! Thanx For Downloading And Enjoy The Movie

    PLz Say Thanx For What You Are About To Receive And Keep Thread Alive !!!
    Need A Fast VPS (Virtual Private Server) , Click Here

    Buy A New Account Through My Links Or

  2. #2

    ytmn is a splendid one to behold ytmn is a splendid one to behold ytmn is a splendid one to behold ytmn is a splendid one to behold ytmn is a splendid one to behold ytmn is a splendid one to behold ytmn is a splendid one to behold ytmn is a splendid one to behold ytmn's Avatar
    Join Date
    Apr 2012
    Gender:
    Location
    South East Asia
    Posts
    1,776
    Points: 10,930, Level: 25
    Points: 10,930, Level: 25
    Level completed: 9%,
    Points required for next Level: 820
    Level completed: 9%, Points required for next Level: 820
    Overall activity: 17.0%
    Overall activity: 17.0%
    Achievements:
    Created Album picturesTagger First ClassOverdrive3 months registeredRecommendation Second Class
    Awards:
    Diamond MemberFrequent Poster
    Post Thanks / Like
    Note
    Moved this thread because links are all dead.

+ Reply to Thread + Post New Thread

Thread Information

Users Browsing this Thread

There are currently 1 users browsing this thread. (0 members and 1 guests)

     

Similar Threads

  1. Timecop (1994) 720p BluRay DTS x264-PiPicK
    By heshamsheva in forum 720p Movies
    Replies: 1
    Last Post: 11-29-2012, 02:51 PM
  2. Escape from L.A. (1996) m720p-JoN
    By hdhieu in forum m720p Movies
    Replies: 14
    Last Post: 10-17-2012, 01:33 PM
  3. Romeo + Juliet | 1996 | 1080p | BluRay | PiPicK
    By netwolf in forum 1080p Movies
    Replies: 0
    Last Post: 09-03-2012, 07:16 PM
  4. [MF] Escape From L.A. (1996) m720p-McClassick
    By hdhieu in forum m720p Movies
    Replies: 13
    Last Post: 08-30-2012, 04:25 PM
  5. Escape from L A 1996 1080p BluRay
    By bloodand in forum Recycle Bin
    Replies: 1
    Last Post: 05-20-2012, 11:11 AM

Tags for this Thread

Visitors found this page by searching for:

escape from la 720p

escape from LA 720p torrent

escape from l a 1996 720p bluray dts x264 pipick

escape from la hd torrentescape.from.l.a. 720p torrentescape from la filesonicescape from la mkv torrentescape from los angeles torrentEscape from L.A. (1996) BluRay 720pescape from l.a. 1996 720p bluray dts x264-pipickEscape from L.A 1996 BluRay 720p x264 Dts-PiPicK.mkvescape from l.a coverescape from la 720 torrentescape from l.a hd.torrentescape from la wupload.comescape from los angeles 720p torrentescape from l.a. (1996) x264 m-hdescape from l.a. 1996 720 p torrentescape from la 1996 720pescape from l a bitshareescape from l.a 1996 bluray 720p x264 dts-pipickescape from l.a. m720pEscape from L.A mhdescape from la 720p pipick torrentescape from los angeles mhd

Bookmarks

Posting Permissions

  • You may not post new threads
  • You may not post replies
  • You may not post attachments
  • You may not edit your posts